<?xml version="1.0" standalone="no"?>
<!DOCTYPE svg PUBLIC "-//W3C//DTD SVG 1.1//EN" "http://www.w3.org/Graphics/SVG/1.1/DTD/svg11.dtd" >
<svg xmlns="http://www.w3.org/2000/svg">
<defs>
  <font id="iconfont" horiz-adv-x="1024">
    <font-face font-family="iconfont"
      units-per-em="1024" ascent="1024"
      descent="0" />
    <missing-glyph horiz-adv-x="0" />
    <glyph glyph-name="account"
      unicode="&#xE001;"
      horiz-adv-x="1024" d="M85.3333 68.2667C85.3333 68.2667 137.422 293.2376 202.8747 376.0517C202.8747 376.0517 261.6382 424.1335 291.0198 428.1404C320.4015 432.1472 503.391 436.154 503.391 436.154L558.1525 503.1988H583.5274L591.541 611.1298L567.5001 636.5046L556.8185 703.2865L560.8253 734.0071H572.8458C572.8458 734.0071 580.6208 820.828 579.5206 830.1805C578.4251 839.5281 613.0503 940.6723 699.8663 954.2652C786.6823 967.8631 939.029 882.5271 939.029 882.5271L930.8012 735.3508L914.7739 689.937L924.1215 687.2641C924.1215 687.2641 922.7876 661.8893 912.101 644.528C912.101 644.528 897.4078 571.0664 860.0124 569.7325L830.6259 484.2504L805.2509 456.1978L785.2169 397.4344L885.3873 275.8861L893.401 205.0974C893.401 205.0974 951.6143 153.1791 936.5314 68.2764H85.3333z" />
    <glyph glyph-name="arrow-down"
      unicode="&#xE002;"
      horiz-adv-x="1024" d="M512 204.8L819.2 546.1333L204.8 546.1333z" />
    <glyph glyph-name="arrow-left"
      unicode="&#xE003;"
      horiz-adv-x="1024" d="M341.3333 512L682.6667 819.2L682.6667 204.8z" />
    <glyph glyph-name="arrow-right"
      unicode="&#xE004;"
      horiz-adv-x="1024" d="M682.6667 512L341.3333 819.2L341.3333 204.8z" />
    <glyph glyph-name="arrow-up"
      unicode="&#xE005;"
      horiz-adv-x="1024" d="M512 546.1333L819.2 204.8L204.8 204.8z" />
    <glyph glyph-name="basket"
      unicode="&#xE006;"
      horiz-adv-x="1024" d="M68.2667 810.9708L79.9709 729.0413L251.4273 729.0413L332.3301 259.0248L897.8283 259.0248L955.7333 683.2512L326.5806 683.2512L305.6363 810.9708L68.2667 810.9708zM389.2085 205.8425C351.249 205.8425 320.4205 175.0075 320.4205 137.0546C320.4205 99.0952 351.249 68.2667 389.2085 68.2667C427.1416 68.2667 457.9964 99.0952 457.9964 137.0546C457.9964 175.0075 427.1416 205.8425 389.2085 205.8425zM829.2457 205.8425C791.2942 205.8425 760.4578 175.0061 760.4578 137.0546C760.4578 99.1031 791.2942 68.2667 829.2457 68.2667C867.1972 68.2667 897.8283 99.1031 897.8283 137.0546C897.8283 175.0061 867.1972 205.8425 829.2457 205.8425z" />
    <glyph glyph-name="close"
      unicode="&#xE007;"
      horiz-adv-x="1024" d="M763.0916 955.7334L511.9218 704.5636L260.9085 955.5769L68.2667 762.9352L319.28 511.9219L68.2667 260.9085L260.9084 68.2667L511.9218 319.28L762.9352 68.2667L955.5769 260.9084L704.5635 511.9218L955.7333 763.0916L763.0916 955.7333z" />
    <glyph glyph-name="minus"
      unicode="&#xE008;"
      horiz-adv-x="1024" d="M68.2667 375.4667L955.7333 375.4667L955.7333 614.4L68.2667 614.4z" />
    <glyph glyph-name="plus"
      unicode="&#xE009;"
      horiz-adv-x="1024" d="M68.2667 388.9462L389.0738 388.9462L389.0738 68.2667L635.126 68.2667L635.126 388.9462L955.7333 388.9462L955.7333 635.0538L635.126 635.0538L635.126 955.7334L389.0738 955.7334L389.0738 635.0538L68.2667 635.0538L68.2667 388.9463z" />
    <glyph glyph-name="search"
      unicode="&#xE00A;"
      horiz-adv-x="1024" d="M542.1414 955.7334C351.4121 955.7334 196.8161 797.2659 196.8161 601.7603C196.8161 502.1696 237.0195 412.2934 301.5926 347.9756L136.5333 144.9746C169.8752 119.4053 203.217 93.8359 236.559 68.2667L413.9755 273.1267C453.6228 256.8645 496.8258 247.7872 542.1414 247.7872C732.8707 247.7872 887.4667 406.2547 887.4667 601.7603C887.4667 797.2659 732.8707 955.7334 542.1414 955.7334zM542.1414 867.2401C685.1882 867.2401 801.1353 748.3895 801.1353 601.7603C801.1353 455.1311 685.1882 336.2804 542.1414 336.2804C399.0944 336.2804 283.1474 455.1311 283.1474 601.7603C283.1474 748.3895 399.0944 867.2401 542.1414 867.2401z" />
    <glyph glyph-name="sound--off"
      unicode="&#xE00B;"
      horiz-adv-x="1024" d="M18 818.054L1006 247.638V201.946L18 772.362V818.054zM802.844 443.966L838.966 423.128C844.214 451.376 847.922 480.206 847.922 510C847.922 590.084 828.43 665.456 794.626 732.34L762.168 708.45C791.498 648.4 808.4 581.208 808.4 510C808.4 487.502 806.124 465.58 802.844 443.966zM350.092 705.284L650 925.884V707.6V532.036L690 509.23V707.6V1004L312.894 726.818L350.092 705.284zM966.48 510C966.48 458.786 957.216 409.888 941.392 364.002L976.244 343.854C995.076 395.802 1006 451.49 1006 510C1006 657.738 940.816 789.96 838 880.46L805.388 856.496C903.766 773.054 966.48 648.782 966.48 510zM852.9 211.284C838.12 194.342 822.564 178.096 805.39 163.504L838 139.54C855.946 155.364 872.232 172.922 887.748 191.176L852.9 211.284zM650 328.264V312.4V94.116L283.134 364.162L272.834 372H259.868H56V648H95.962L27.494 688H18V332H259.866L690 16V305.452L650 328.264z" />
    <glyph glyph-name="sound--on"
      unicode="&#xE00C;"
      horiz-adv-x="1024" d="M648 920V706.2V311.8V93.958L282.236 363.818L272.316 372.002H259.376H56V646H259.376H272.316L282.756 654.184L648.52 921.762M690 1002L259.376 688H18V330H259.376L690 16V311.8V706.2V1002L690 1002zM836.34 878.71L803.794 854.794C901.972 771.52 964.56 647.502 964.56 509S901.972 246.476 803.794 163.206L836.34 139.29C938.948 229.608 1004 361.562 1004 509S938.948 788.392 836.34 878.71zM806.8 509C806.8 437.938 789.932 370.882 760.66 310.952L793.052 287.11C826.788 353.858 846.24 429.078 846.24 509S826.788 664.142 793.052 730.89L760.66 707.048C789.932 647.118 806.8 580.062 806.8 509z" />
    <glyph glyph-name="kikoolol"
      unicode="&#xE00D;"
      horiz-adv-x="1024" d="M512 512L819.2 170.6667L204.8 170.6667zM512 512L819.2 853.3333L204.8 853.3333z" />
    <glyph glyph-name="mute"
      unicode="&#xE00E;"
      horiz-adv-x="439" d="M439 389.6164V292.6111H341.9947L219.5 415.1058L97.0053 292.6111H0V389.6164L122.4947 512.1111L0 634.6058V731.6111H97.0053L219.5 609.1164L341.9947 731.6111H439V634.6058L316.5053 512.1111z" />
    <glyph glyph-name="sound"
      unicode="&#xE00F;"
      horiz-adv-x="439" d="M55.6034 251.7333C41.3717 251.7333 27.1446 257.1614 16.2861 268.0176C-5.4287 289.7324 -5.4287 324.9352 16.2861 346.6499C110.2297 440.5936 110.2297 593.4495 16.2861 687.3908C-5.4287 709.1056 -5.4287 744.3107 16.2861 766.0232C38.0008 787.7356 73.2036 787.7356 94.9184 766.0232C232.2198 628.7218 232.2198 405.3166 94.9184 268.0153C84.0622 257.1614 69.8328 251.7333 55.6034 251.7333zM253.1167 146.8894C238.885 146.8894 224.658 152.3175 213.7994 163.1737C192.087 184.8862 192.087 220.0913 213.7994 241.806C365.5526 393.5592 365.5526 640.4816 213.7994 792.2347C192.087 813.9495 192.087 849.1546 213.7994 870.8671C235.5119 892.5772 270.7193 892.5795 292.4317 870.8671C386.9476 776.3535 439 650.6891 439 517.0227C439 383.3586 386.9476 257.6919 292.4317 163.176C281.5755 152.3175 267.3461 146.8894 253.1167 146.8894z" />
    <glyph glyph-name="speaker"
      unicode="&#xE010;"
      horiz-adv-x="511.9057" d="M458.5807 1007.1446C487.9101 1036.474 511.9057 1026.533 511.9057 985.0549V38.9435C511.9057 -2.5345 487.9101 -12.4733 458.5807 16.8562L182.8235 292.6111H0V731.3874H182.8235L458.5807 1007.1446z" />
    <glyph glyph-name="diegoliv"
      unicode="&#xE011;"
      horiz-adv-x="989.3668797690245" d="M495.0002 1024C569.5459 1024 601.0113 975.6403 651.0604 959.3797C701.3207 943.119 735.5314 969.9385 795.9282 926.2248C856.1138 882.511 853.3685 824.6484 884.2005 782.2017C915.2436 739.5438 958.7461 741.0221 981.7645 670.0664C1004.7828 599.3219 968.4603 554.3411 968.4603 501.5467C968.4603 448.7523 1004.5717 424.2557 981.5533 353.5112C958.535 282.7668 902.7841 267.562 871.741 224.9041C840.6979 182.2462 855.6915 141.2778 795.2947 97.3529C735.1091 53.6391 681.0476 74.1233 630.9986 57.8627C580.7383 41.602 568.7012 -0.4224 494.3667 -0.4224S388.3555 47.9373 338.3065 64.198C288.2574 80.4587 253.8354 53.6391 193.4386 97.3529C133.253 141.0666 135.9984 198.9293 105.1664 241.376C74.1233 284.0338 30.6207 282.5556 7.6024 353.5112C-15.416 424.2557 20.9066 469.2365 20.9066 522.0309C20.9066 574.8253 -15.2048 599.3219 7.8136 670.0664C30.8319 740.8109 86.5828 756.0157 117.6259 798.6735C148.669 841.3314 133.6754 882.2999 194.0722 926.2248C254.2578 969.9385 308.3192 949.4543 358.3683 965.715C408.4174 981.9757 420.6657 1024 495.0002 1024L495.0002 1024z" />
    <glyph glyph-name="hannesjohansson"
      unicode="&#xE012;"
      horiz-adv-x="1024" d="M72 615.968C72 439.52 215.552 295.968 392 295.968C459.552 295.968 522.176 317.12 573.856 352.992L815.424 111.424C831.04 95.808 851.52 88 872 88S912.96 95.808 928.576 111.424C959.84 142.656 959.84 193.28 928.576 224.544L678.624 474.496C699.808 517.216 712.032 565.152 712.032 615.968C712.032 792.416 568.48 935.968 392.032 935.968S72.032 792.448 72 615.968zM200.032 615.968C200.032 721.856 286.144 807.968 392.032 807.968S584.032 721.856 584.032 615.968S497.92 423.968 392.032 423.968S200.032 510.08 200.032 615.968z" />
    <glyph glyph-name="roelvanhitum"
      unicode="&#xE013;"
      horiz-adv-x="1024" d="M761.344 656.384H715.9808L512 424.448L308.0192 656.384H262.656L512 367.616L761.344 656.384z" />
    <glyph glyph-name="safety-icon"
      unicode="&#xE014;"
      horiz-adv-x="1024" d="M974.8053 816.0853C963.0293 850.7733 885.1627 1023.744 511.9573 1023.744C138.7947 1023.744 61.0133 850.7307 49.152 816.0853L43.008 797.8667V778.624C43.008 309.2053 431.104 52.608 447.616 41.8987L511.9573 0.2133L576.3413 41.8987C592.8533 52.608 980.992 309.2053 980.992 778.624V797.8667L974.8053 816.0853zM512.384 85.3333C512.384 85.3333 128.4693 356.5653 128.4693 768C128.4693 768 204.8853 938.6667 512.384 938.6667C819.9253 938.6667 896.2987 768 896.2987 768C896.2987 356.5653 512.384 85.3333 512.384 85.3333zM466.176 562.2187L384.4693 643.328L301.1413 560.64L466.176 396.8L762.9227 691.4133L679.5947 774.144L466.176 562.2187z" />
    <glyph glyph-name="sb-icon"
      unicode="&#xE015;"
      horiz-adv-x="1021.5191677354994" d="M758.6239 437.2832H583.1415V261.8008H447.5713V437.2832H272.0889V572.8534H447.6443V748.4087H583.2145V572.8534H758.6969V437.2832zM984.9634 512C984.9634 250.0533 772.6333 37.7232 510.6866 37.7232S36.4099 250.0533 36.4099 512S248.7399 986.2768 510.6866 986.2768S984.9634 773.9467 984.9634 512M892.8807 512C892.8807 723.2356 721.8492 894.1941 510.6866 894.1941C299.451 894.1941 128.4925 723.2356 128.4925 512C128.4925 300.6915 299.451 129.8059 510.6866 129.8059C721.9952 129.8059 892.8807 300.7644 892.8807 512" />
    <glyph glyph-name="settings-icon"
      unicode="&#xE016;"
      horiz-adv-x="1024" d="M785.4933 561.0667L746.5813 561.2373C741.4613 592 730.624 620.7147 715.136 646.4L741.9307 673.4507C760.2773 691.84 760.192 721.5787 741.8453 739.8827C723.584 758.1867 693.7173 758.144 675.4987 739.7547L652.032 716.0747C625.5787 735.8293 595.0293 750.336 561.792 758.016L561.4507 785.152C561.4507 811.0933 540.416 832 514.432 832C488.6187 832.0853 467.5413 810.9227 467.584 784.9813L467.9253 761.088C434.0907 755.584 402.56 743.2533 374.8693 725.2907L355.456 744.3627C337.0667 762.7093 307.3707 762.7093 289.1093 744.32C270.848 725.9733 270.8907 696.192 289.1947 678.016L307.328 660.096C287.3173 631.3387 273.4933 598.144 267.3493 562.2187L238.6347 562.56C212.736 562.6453 191.6587 541.6533 191.6587 515.6693C191.616 489.7707 212.608 468.736 238.464 468.6933L269.568 468.3093C277.12 434.176 291.8827 402.9013 312.1493 375.808L290.1333 353.408C271.8293 335.104 271.8293 305.408 290.2187 287.0613C308.5653 268.8 338.304 268.8 356.608 287.1893L381.7813 312.7893C407.7653 297.1307 436.864 286.2507 467.968 281.216L468.352 238.9333C468.3947 213.0773 489.3867 192.0427 515.328 192.0427C541.2693 192.128 562.2187 213.12 562.176 239.0613L561.792 284.2453C591.1467 291.0293 618.5387 302.9333 642.7733 319.232L673.28 289.152C691.6693 270.8053 721.408 270.8907 739.712 289.28C757.9733 307.5413 757.9733 337.3653 739.584 355.6267L709.0773 385.664C725.504 410.112 737.4507 437.76 744.1067 467.4133L785.536 467.2C811.392 467.1573 832.4693 488.192 832.4693 514.048C832.384 539.9467 811.4773 561.024 785.4933 561.0667zM506.9227 400.896C440.6187 400.896 386.688 454.8693 386.688 521.1307C386.688 553.2587 399.1893 583.424 421.9307 606.1653C444.6293 628.9067 474.8373 641.408 506.9227 641.408C573.2267 641.3227 627.1573 587.392 627.1573 521.1307S573.2267 400.896 506.9227 400.896z" />
    <glyph glyph-name="track-icon"
      unicode="&#xE017;"
      horiz-adv-x="1024" d="M512 718.3872C656.9472 718.3872 801.8432 646.0928 888.7296 501.6064V472.7808C801.8432 328.3968 656.9472 256.1024 512 256.1024C367.104 256.1024 222.2592 328.3968 135.3216 472.7808V501.6064C222.208 646.0928 367.0528 718.3872 512 718.3872M512 820.0192C317.44 820.0192 140.8 719.4624 39.5264 551.1168L25.6 527.9744V501.5552V472.7296V446.3104L39.4752 423.2704C140.8 254.9248 317.3888 154.4192 512 154.4192S883.2 254.976 984.576 423.3216L998.4512 446.3616V472.7808V501.6064V527.9744L984.576 551.0656C883.2 719.4624 706.56 820.0192 512 820.0192zM707.1232 487.2704C707.1232 381.8496 619.9296 296.3456 512.2048 296.3456C404.5312 296.3456 317.2352 381.8496 317.2352 487.2704S404.48 678.144 512.1536 678.144C619.8784 678.144 707.1232 592.64 707.1232 487.2704z" />
    <glyph glyph-name="web-icon"
      unicode="&#xE018;"
      horiz-adv-x="1024" d="M865.6896 845.8752L863.8976 847.6672C850.6368 860.0064 806.5024 901.12 791.9616 911.8208C776.4992 923.2896 721.3056 950.272 698.3168 961.2288L695.9104 962.304C637.3888 986.2656 575.5392 998.4 512.0512 998.4C243.7632 998.4 25.6 780.2368 25.6 511.9488C25.6 243.7632 243.7632 25.6 512.0512 25.6C780.288 25.6 998.4 243.7632 998.4 511.9488C998.4 636.6208 951.296 755.2 865.6896 845.8752zM687.5648 847.5648L688.4352 846.7456C687.616 847.36 687.2576 847.872 686.336 848.5376L687.5648 847.5648zM110.6944 511.9488C110.6944 534.8864 113.0496 557.2096 116.736 579.1232C119.2448 556.9536 130.5088 535.808 157.9008 508.6208C184.064 482.7136 205.0048 450.9184 220.3648 417.4336C235.264 384.9728 189.0816 364.0832 205.568 326.144C232.8064 263.6288 310.4768 242.8928 337.4592 180.48C344.7808 163.584 355.2256 149.0432 367.104 136.3456C217.2416 194.9696 110.6944 340.992 110.6944 511.9488zM470.2208 110.8992C477.44 119.1424 490.3424 127.6928 508.2624 122.624C508.1088 182.2208 589.7216 203.0592 593.7664 272.8448C595.5584 300.7488 444.1088 312.6272 430.592 321.9456C449.536 375.296 386.2016 356.5056 373.4016 398.1824C354.4064 417.1776 333.4656 427.1104 308.6336 436.736C248.576 443.8528 229.5808 464.7936 178.2784 495.7184C181.6064 505.344 175.4112 524.0832 178.8416 536.7296C145.7152 539.648 149.1968 555.4688 148.8384 588.6464C160.4096 596.0704 168.0384 606.7712 171.776 620.9024C196.608 620.032 209.152 604.7744 229.632 616.2432C243.7632 564.8384 255.744 680.8064 249.2416 549.1712C256.512 555.264 263.7824 561.3568 270.9504 567.4496C263.3728 588.6464 258.9696 579.328 276.1216 610.2016C276.6336 612.0448 431.3088 670.6688 470.8352 681.472C452.608 686.2336 451.2256 693.1968 466.688 702.3104C453.5296 700.7232 440.4736 698.368 427.5712 695.3472C463.2576 724.6848 500.1728 705.5872 538.112 737.6384C516.5056 736.256 502.7328 742.8096 518.8608 772.4544C512.3072 775.68 473.4464 799.1296 467.8656 800.1536C467.2 783.104 394.2912 733.4912 389.9392 746.6496C370.0224 770.0992 371.1488 781.8752 397.3632 795.136C425.5744 811.52 469.2992 818.688 488.3968 835.84C487.0656 848.896 480.0512 849.7152 467.3536 838.2464C466.3296 848.896 465.3568 859.5456 464.384 870.1952C450.048 846.1824 353.0752 826.7264 338.5344 843.6736C343.9616 844.8 398.2848 851.6096 370.3296 860.6208C356.352 873.728 373.3504 860.5184 340.5312 872.2944C342.1184 874.6496 342.3744 875.7248 343.296 877.4656C394.7008 901.5296 451.7376 915.3536 512.0512 915.3536C514.816 915.3536 517.5296 915.0464 520.2944 914.944C510.7712 909.4144 501.6064 901.7856 490.2912 889.9584C521.3696 888.064 525.1072 846.2848 515.5328 827.392C517.8368 814.2848 515.2768 792.1152 538.88 793.0368C639.7952 796.9792 597.1456 870.1952 587.52 908.1856C608.5632 904.1408 629.1968 898.048 649.472 890.5728C663.9104 869.0688 671.5392 846.2848 691.456 830.0544C696.7808 832.7168 697.4976 836.352 694.3232 840.8576L696.1152 839.0656L698.112 836.9664L700.0576 834.8672C714.8544 841.3184 701.2352 856.3712 687.5648 873.6256C698.9824 867.9424 709.9392 862.3616 719.0016 857.6C731.9552 845.6704 742.1952 830.6688 742.5536 809.7792C720.1792 816.5376 731.0336 797.952 708.7104 822.6816C707.328 813.6704 715.1104 795.8528 715.2128 782.2848C707.328 785.152 692.8896 788.6336 687.3088 796.3136L685.7728 798.5664L684.1856 800.8704L682.5984 803.072L680.9088 805.376L679.3216 807.5776L677.7344 809.8304C674.56 802.304 683.3152 776.3968 698.4192 760.32C702.208 753.5104 721.5104 730.368 725.0944 724.8896C712.5504 720.2304 699.3408 718.3872 685.568 719.36C691.968 707.1744 698.2656 694.9888 704.5632 682.8032L701.44 679.8336L702.1056 678.0928L702.72 676.4032L703.3856 674.6624L703.9488 673.024L704.512 671.3856L705.1264 669.7984L705.6896 668.2624C713.0112 668.6208 741.5296 679.4752 752.8448 684.3904C726.4768 746.0864 781.7216 751.616 812.2368 712.3968C800.6656 734.72 791.296 737.5872 777.4208 748.8C788.0704 762.0096 834.56 714.6496 834.8672 714.496C836.3008 724.4288 826.7264 750.8992 818.5856 771.6352C820.1216 769.7408 821.8112 767.9488 823.3984 766.0032C825.344 752.4864 837.2736 731.136 846.7968 723.5072C841.984 730.9312 840.8064 736.4096 842.3424 740.4544C853.0944 724.8384 862.8224 708.7104 871.2192 691.8656C856.3712 674.2528 848.0768 688.2816 839.6288 660.992C776.4992 669.0816 811.9808 683.0592 733.6448 661.5552C736.6656 659.968 737.4848 657.5104 736.2048 654.336L734.9248 654.08L733.5936 653.7216L732.2624 653.4144L730.9312 653.0048L729.4464 652.6976L727.8592 652.288L726.3232 651.9296C709.888 610.56 687.3088 568.832 661.1968 531.5072C664.3712 506.0608 720.8448 354.2528 756.48 410.5728C806.0416 422.144 859.0848 460.4416 855.9104 387.1232C853.8624 339.8656 838.6048 293.2224 816.5888 250.0096C742.912 163.6352 633.856 108.6976 512.0512 108.6976C497.92 108.6976 483.9424 109.5168 470.2208 110.8992z" />
    <glyph glyph-name="roundedrect"
      unicode="&#xE019;"
      horiz-adv-x="1024" d="M1024 682.6667H2389.3333A682.6666666666667 1365.3333333333335 0 0 0 3072 -682.6667V-682.6667A682.6666666666667 1365.3333333333335 0 0 0 2389.3333 -2048H1024A682.6666666666667 1365.3333333333335 0 0 0 341.3333 -682.6667V-682.6667A682.6666666666667 1365.3333333333335 0 0 0 1024 682.6667z" />
    <glyph glyph-name="circle"
      unicode="&#xE01A;"
      horiz-adv-x="1024" d="M375.4667 682.6667A136.53333333333333 136.53333333333333 0 0 1 648.5333 682.6667A136.53333333333333 136.53333333333333 0 0 1 375.4667 682.6667M375.4667 341.3333A136.53333333333333 136.53333333333333 0 0 1 648.5333 341.3333A136.53333333333333 136.53333333333333 0 0 1 375.4667 341.3333" />
    <glyph glyph-name="ellipse"
      unicode="&#xE01B;"
      horiz-adv-x="1024" d="M375.4667 682.6667A136.53333333333333 204.80000000000004 0 0 1 648.5333 682.6667A136.53333333333333 204.80000000000004 0 0 1 375.4667 682.6667M307.2 341.3333A204.80000000000004 136.53333333333333 0 0 1 716.8 341.3333A204.80000000000004 136.53333333333333 0 0 1 307.2 341.3333" />
    <glyph glyph-name="lines"
      unicode="&#xE01C;"
      horiz-adv-x="1024" d="M68.2667 819.2L75.0933 812.3733L962.56 402.7733L955.7333 409.6z" />
    <glyph glyph-name="polygon"
      unicode="&#xE01D;"
      horiz-adv-x="1024" d="M68.2667 819.2L68.2667 409.6L955.7333 409.6L955.7333 819.2z" />
    <glyph glyph-name="polyline"
      unicode="&#xE01E;"
      horiz-adv-x="1024" d="M68.2667 819.2L68.2667 409.6L955.7333 409.6L955.7333 819.2L68.2667 819.2" />
    <glyph glyph-name="rect"
      unicode="&#xE01F;"
      horiz-adv-x="1024" d="M68.2667 409.6H955.7333V204.8H68.2667V409.6z" />
    <glyph glyph-name="bottomleft"
      unicode="&#xE020;"
      horiz-adv-x="1024" d="M204.8 204.8L204.8 409.6L409.6 409.6L409.6 204.8z" />
    <glyph glyph-name="center"
      unicode="&#xE021;"
      horiz-adv-x="1024" d="M409.6 409.6L409.6 614.4L614.4 614.4L614.4 409.6z" />
    <glyph glyph-name="topright"
      unicode="&#xE022;"
      horiz-adv-x="1024" d="M614.4 819.2L614.4 614.4L819.2 614.4L819.2 819.2z" />
  </font>
</defs>
</svg>
